VIP 2: LALKAR (2017) – 1CD – PRE DVDSCR RIP [X264 – AAC3(2CH)

VIP 2: LALKAR (2017) – 1CD – PRE DVDSCR RIP [X264 – AAC3(2CH)

Image

ImageImage

ImageImage

General
Format                                   : Matroska
Format version                           : Version 2
File size                                : 700 MiB
Duration                                 : 2 h 19 min

Video
ID                                       : 1
Format                                   : AVC
Format/Info                              : Advanced Video Codec
Format profile                           : [email protected]
Format settings, CABAC                   : Yes
Format settings, RefFrames               : 4 frames
Codec ID                                 : V_MPEG4/ISO/AVC
Duration                                 : 2 h 19 min
Bit rate                                 : 619 kb/s
Width                                    : 640 pixels
Height                                   : 272 pixels
Display aspect ratio                     : 2.35:1
Frame rate mode                          : Constant
Frame rate                               : 25.000 FPS
Color space                              : YUV
Chroma subsampling                       : 4:2:0
Bit depth                                : 8 bits
Scan type                                : Progressive
Bits/(Pixel*Frame)                       : 0.142
Stream size                              : 618 MiB (88%)

Audio
ID                                       : 2
Format                                   : AAC
Format/Info                              : Advanced Audio Codec
Format profile                           : HE-AAC / LC
Codec ID                                 : A_AAC
Duration                                 : 2 h 19 min
Bit rate                                 : 80.0 kb/s
Channel(s)                               : 2 channels
Channel positions                        : Front: L R
Sampling rate                            : 48.0 kHz / 24.0 kHz
Stream size                              : 79.9 MiB (11%)

Thumbnail

Image

ImageImage

Image

bdupload.info Download Link
indishareuptobox.com Download Link
arabloads.net Download Link
filescdn.com Download Link
9xplay.net Download Link
hdupload.net Download Link
openload.coDownload Link[/size]
clicknupload Download Link
hdupload.net Download Link[/
9xupload.me Download Link

indishare Download Link

 

ডাউনলোড করতে নিচে ক্লিক করুন

Leave a Reply

Your email address will not be published. Required fields are marked *

*