Rater Balobasha – Bengali Short Film – 720p WEBRip – 178MB

  • Rater Balobasha – Bengali Short Film – 720p WEBRip – 178MB

  • Image

General
Rater Balobasha – Bengali Short Film – 720p WEBRip – 178MB.mkv
Format                      : Matroska
Format version              : Version 1
File size                   : 178 MiB
Duration                    : 41 min 1 s

Video
ID                          : 1
Format                      : AVC
Format/Info                 : Advanced Video Codec
Format profile              : [email protected]
Format settings, CABAC      : Yes
Format settings, ReFrames   : 1 frame
Format settings, GOP        : M=3, N=24
Codec ID                    : V_MPEG4/ISO/AVC
Duration                    : 41 min 1 s
Bit rate mode               : Variable
Bit rate                    : 499 kb/s
Maximum bit rate            : 768 kb/s
Width                       : 720 pixels
Height                      : 358 pixels
Display aspect ratio        : 16:9
Frame rate mode             : Constant
Frame rate                  : 29.970 (30000/1001) FPS
Color space                 : YUV
Chroma subsampling          : 4:2:0
Bit depth                   : 8 bits
Scan type                   : Progressive
Bits/(Pixel*Frame)          : 0.073
Stream size                 : 146 MiB (82%)
Default                     : Yes
Forced                      : No

Audio
ID                          : 2
Format                      : AC-3
Format/Info                 : Audio Coding 3
Mode extension              : CM (complete main)
Format settings, Endianness : Big
Codec ID                    : A_AC3
Duration                    : 41 min 1 s
Bit rate mode               : Constant
Bit rate                    : 96.0 kb/s
Channel(s)                  : 2 channels
Channel positions           : Front: L R
Sampling rate               : 48.0 kHz
Frame rate                  : 31.250 FPS (1536 spf)
Bit depth                   : 16 bits
Compression mode            : Lossy
Stream size                 : 28.2 MiB (16%)
Default                     : Yes
Forced                      : No

Image

ImageImageImageImageImageImageImageImage

bdupload. Download Link
OR
Bduploadmor. Download Link
OR
indishare Download Link
OR
uploads.to. Download Link
OR
hdupload.net Download Link

OR
clicknupload Download Link
OR
9xupload.me Download Link
OR
uptobox Download Link
OR
openload Download Link

ডাউনলোড করতে নিচে ক্লিক করুন

Leave a Reply

Your email address will not be published. Required fields are marked *

*