Maacher Jhol (2017) Bengali Movie – Pre DvDScr – 700 MB

Maacher Jhol (2017) Bengali Movie – Pre DvDScr – 700 MB

General
Format                                   : MPEG-PS
File size                                : 700 MiB
Duration                                 : 1 h 55 min

Video
ID                                       : 224 (0xE0)
Format                                   : MPEG Video
Format version                           : Version 2
Format profile                           : [email protected]
Format settings                          : CustomMatrix / BVOP
Format settings, BVOP                    : Yes
Format settings, Matrix                  : Custom
Format settings, GOP                     : Variable
Duration                                 : 1 h 55 min
Bit rate mode                            : Variable
Bit rate                                 : 770 kb/s
Width                                    : 352 pixels
Height                                   : 288 pixels
Display aspect ratio                     : 4:3
Frame rate                               : 25.000 FPS
Standard                                 : PAL
Color space                              : YUV
Chroma subsampling                       : 4:2:0
Bit depth                                : 8 bits
Scan type                                : Progressive
Stream size                              : 633 MiB (90%)

Audio
ID                                       : 192 (0xC0)
Format                                   : MPEG Audio
Format version                           : Version 1
Format profile                           : Layer 2
Duration                                 : 1 h 55 min
Bit rate mode                            : Constant
Bit rate                                 : 64.0 kb/s
Channel(s)                               : 2 channels
Stream size                              : 53.0 MiB (8%)

bdupload. Download Link
OR
indishare Download Link
OR
openload Download Link
OR
9xupload Download Link
OR
uploads.to Download Link
OR

hdupload. Download Link

OR
up-4ever. Download Link
OR
uptocafe. Download Link
OR
clicknupload. Download Link

ডাউনলোড করতে নিচে ক্লিক করুন

Leave a Reply

Your email address will not be published. Required fields are marked *

*