Infection (Bengali Short Film) – HD Rip [x264 – AAC3(2Ch)] – 281 MB

Infection (Bengali Short Film) – HD Rip
[x264 – AAC3(2Ch)] – 281 MB

Image

Choclate (Bengali Movie) – 1CD –

Image

Image

General
Format                                   : Matroska
Format version                           : Version 2
File size                                : 281 MiB
Duration                                 : 47 min 23 s

Video
ID                                       : 1
Format                                   : AVC
Format/Info                              : Advanced Video Codec
Format profile                           : [email protected]
Format settings, CABAC                   : Yes
Format settings, RefFrames               : 4 frames
Codec ID                                 : V_MPEG4/ISO/AVC
Duration                                 : 47 min 23 s
Bit rate                                 : 700 kb/s
Width                                    : 720 pixels
Height                                   : 408 pixels
Display aspect ratio                     : 16:9
Frame rate mode                          : Constant
Frame rate                               : 25.000 FPS
Color space                              : YUV
Chroma subsampling                       : 4:2:0
Bit depth                                : 8 bits
Scan type                                : Progressive
Bits/(Pixel*Frame)                       : 0.095
Stream size                              : 237 MiB (84%)

Audio
ID                                       : 2
Format                                   : AAC
Format/Info                              : Advanced Audio Codec
Format profile                           : LC
Codec ID                                 : A_AAC
Duration                                 : 47 min 23 s
Bit rate                                 : 128 kb/s
Channel(s)                               : 2 channels
Channel positions                        : Front: L R
Sampling rate                            : 48.0 kHz
Delay relative to video                  : 9 ms
Stream size                              : 43.4 MiB (15%)

ImageImageImageImageImageImageImageImageImageImage

Image

bdupload. Download Link
indishare Download Link
arabloads. Download Link
openload Download Link
9xupload Download Link
hdupload.net Download Link
uploads.to Download Link
uploads.to Download Link

ডাউনলোড করতে নিচে ক্লিক করুন

Leave a Reply

Your email address will not be published. Required fields are marked *

*