HAPPY (Bengali Short Film) – HD Rip [x264 – AAC3(2Ch)] – 200 MBcolor]

HAPPY (Bengali Short Film) – HD Rip [x264 – AAC3(2Ch)] – 200 MBcolor]

ImageImage

Image

Image

General
Format                                   : Matroska
Format version                           : Version 2
File size                                : 200 MiB
Duration                                 : 33 min 25 s

Video
ID                                       : 1
Format                                   : AVC
Format/Info                              : Advanced Video Codec
Format profile                           : [email protected]
Format settings, CABAC                   : Yes
Format settings, RefFrames               : 4 frames
Codec ID                                 : V_MPEG4/ISO/AVC
Duration                                 : 33 min 25 s
Bit rate                                 : 712 kb/s
Width                                    : 720 pixels
Height                                   : 320 pixels
Display aspect ratio                     : 2.25:1
Frame rate mode                          : Constant
Frame rate                               : 25.000 FPS
Color space                              : YUV
Chroma subsampling                       : 4:2:0
Bit depth                                : 8 bits
Scan type                                : Progressive
Bits/(Pixel*Frame)                       : 0.124
Stream size                              : 170 MiB (85%)

Audio
ID                                       : 2
Format                                   : AAC
Format/Info                              : Advanced Audio Codec
Format profile                           : LC
Codec ID                                 : A_AAC
Duration                                 : 33 min 25 s
Bit rate                                 : 128 kb/s
Channel(s)                               : 2 channels
Channel positions                        : Front: L R
Sampling rate                            : 48.0 kHz
Stream size                              : 30.6 MiB (15%)

ImageImageImageImageImageImageImageImageImageImageImageImageImageImageImage

Image

bdupload. Download Link
indishare Download Link
arabloads. Download Link
openload Download Link
9xupload Download Link
hdupload.net Download Link
uploads.to Download Link
uploads.to Download Link

ডাউনলোড করতে নিচে ক্লিক করুন

Leave a Reply

Your email address will not be published. Required fields are marked *

*