Chaturango(2017) Zee Bangla Cinema – 2CD – HDTV Rip[Mp4 – AC3(5.1Ch)]

Chaturango(2017) Zee Bangla Cinema –
2CD – HDTV Rip[Mp4 – AC3(5.1Ch)]

ImageImage

Image

Image

General
Format                                   : MPEG-4
Format profile                           : Base Media
Codec ID                                 : isom (isom)
File size                                : 1.40 GiB
Duration                                 : 2 h 25 min

Video
ID                                       : 1
Format                                   : AVC
Format/Info                              : Advanced Video Codec
Format profile                           : [email protected]
Format settings, CABAC                   : Yes
Format settings, RefFrames               : 4 frames
Codec ID                                 : avc1
Codec ID/Info                            : Advanced Video Coding
Duration                                 : 2 h 25 min
Bit rate                                 : 1 184 kb/s
Maximum bit rate                         : 3 789 kb/s
Width                                    : 720 pixels
Height                                   : 304 pixels
Display aspect ratio                     : 2.35:1
Frame rate mode                          : Constant
Frame rate                               : 25.000 FPS
Color space                              : YUV
Chroma subsampling                       : 4:2:0
Bit depth                                : 8 bits
Scan type                                : Progressive
Bits/(Pixel*Frame)                       : 0.216
Stream size                              : 1.20 GiB (86%)

Audio
ID                                       : 2
Format                                   : AC-3
Format/Info                              : Audio Coding 3
Format settings, Endianness              : Big
Codec ID                                 : ac-3
Duration                                 : 2 h 25 min
Bit rate mode                            : Constant
Bit rate                                 : 192 kb/s
Maximum bit rate                         : 203 kb/s
Channel(s)                               : 6 channels
Channel positions                        : Front: L C R, Side: L R, LFE
Sampling rate                            : 48.0 kHz
Stream size                              : 200 MiB (14%)

ImageImageImageImage

Image

bdupload. Download Link
bdupload. Download Link
OR
indishare Download Link
indishare Download Link
OR
arabloads. Download Link
arabloads. Download Link
OR
openload Download Link
openload Download Link
OR
9xupload Download Link
9xupload Download Link
OR
hdupload.net Download Link
hdupload.net Download Link
OR
uploads.to Download Link
uploads.to Download Link
OR
up-4ever.to Download Link
up-4ever.to Download Link

ডাউনলোড করতে নিচে ক্লিক করুন

Leave a Reply

Your email address will not be published. Required fields are marked *

*